【百度云】【360云盘】最后的城堡.中文字幕.【东影上译国配】【央视国配】【英语原声】.The Last Castle.2001.WEB-DL.720p-CHM.mkv 免费分享 欢迎下载!_百度网盘

这是最后的 289629195 于 2016-7-8 16:42 编者
这项指定是由CHM在整体的组共享,谢谢你的支撑物!更多文章,敬请期待!                                                                                                                                                                 CHM在分派组    休闲健身中心的chm本人与把联套在车上会员国翻译者记载我,我720p摆设婚配web-dl电视的,央视国屯积重行堆积。由于西方电影频道逐渐减少更多,我做了两个休闲健身中心版的翻译者与中国1971:与更新的央视版的分离缺陷,一版是用英语原声掉换,缓和人文学科特色的体验。我缺少全世界都待见它!(左右资源是转载)     

◎译  名 最后的城堡/对峙风暴/叛将风云/铁狱暗战
一片一片的 Last Castle
年发电2001
美国州
举措类/戏剧性事件
◎语  言 英语
公映的新影片日期2001-10-19
的IMDB评分6.9/10 from 56,781 users
IMDB连接
以活门调节评分防护 from 1,907 users
以活门调节连接
131分钟长的片
导演Rod Larry Rod Lurie
Robert Radford大人 Robert Redford
      詹姆士·甘多尔菲尼 James Gandolfini
      记分·鲁弗洛 Mark Ruffalo
      史蒂夫伯顿 Steve Burton
      小谷里·林多 Delroy Lindo

◎简  介

  一座由城堡改建而来的戎牢狱中迎来了一位要人俘虏——野战军抑制埃尔文(罗伯特·雷德福 Robert Redford 饰),牢狱长冬(杰姆斯 Gandolfini 笑靥迎),但很快就开端令人厌恶的他方的好冠军。Elvin在牢狱里审理冬令很好的东西指控犯罪,但持非常心理学,他不释然就刑。,很快,冬令剥夺了尊荣的戎惩办使恼怒了Elvin,Elvin开端用本人的方式去回复俘虏的尊荣,并变为逻辑的罪犯的首领,感触受到要挟,更将不会遵从决心的冬令,为了奉命使痛苦一点钟罪犯,通向T晋级。
  埃尔文确定规划进行牢狱暴乱,包罗上司主管部门关系考察。这些兵士、如今的俘虏手拿回到论争的主题智力,在高价地规划化和秘密的局面下履行激进分子预备,一点钟双重详察的指定成后,团体劝慰了牢狱的角吹!
◎记录书信
General
Unique ID                      : 199141942926496981951777520426526123983 (0x95D157D5D4DBD9A78FD011F6EC4F27CF)
Complete name                  : D:\360Downloads\最后的城堡.中文字幕.【东影上译国配】[情况]与央视【英语原声】.The Last Castle.2001.WEB-DL.720p-CHM.mkv
Format                         : Matroska
Format version                 : Version 4 / Version 2
File size                      : 1.55 GiB
Duration                       : 2h 6mn
Overall bit rate               : 1 745 Kbps
Movie name                     : The Last Castle -Junoon
Encoded date                   : UTC 2016-07-08 06:59:52
Writing application            : mkvmerge v8.0.0 (直到 The Day That I 死的) 32bit
Writing library                : libebml v1.3.1 + libmatroska v1.4.2

Video
ID                             : 1
Format                         : AVC
Format/Info                    : Advanced Video Codec
Format profile                 : High@L3.1
Format settings, CABAC         : Yes
Format settings, ReFrames      : 5 frames
Codec ID                       : V_MPEG4/ISO/AVC
Duration                       : 2h 6mn
Bit rate                       : 706 Kbps
Width                          : 1 280 pixels
Height                         : 532 pixels
Display aspect ratio           : 2.40:1
Frame rate mode                : Constant
Frame rate                     : (24000/1001) fps
Color space                    : YUV
Chroma subsampling             : 4:2:0
Bit depth                      : 8 bits
Scan type                      : Progressive
Bits/(Pixel*Frame)             : 0.043
Stream size                    : 651 MiB (41%)
Title                          : [电视的]
Writing library                : x264 core 98 r1649 c54c47d
Encoding settings              : cabac=1 / ref=5 / deblock=1:-2:-1 / analyse=0x3:0x113 / me=umh / subme=6 / psy=1 / psy_rd=1.00:0.00 / mixed_ref=1 / me_range=16 / chroma_me=1 / trellis=1 / 8x8dct=1 / cqm=0 / deadzone=21,11 / fast_pskip=1 / chroma_qp_offset=-2 / threads=12 / sliced_threads=0 / nr=0 / decimate=1 / interlaced=0 / constrained_intra=0 / bframes=16 / b_pyramid=2 / b_adapt=1 / b_bias=0 / direct=3 / weightb=1 / weightp=2 / keyint=250 / keyint_min=25 / scenecut=40 / intra_refresh=0 / rc_lookahead=40 / rc=2pass / mbtree=1 / bitrate=706 / ratetol=1.0 / qcomp=0.60 / qpmin=10 / qpmax=51 / qpstep=4 / cplxblur=20.0 / qblur=0.5 / ip_ratio=1.40 / aq=1:1.00
Language                       : English
Default                        : No
Forced                         : No

Audio #1
ID                             : 2
Format                         : AC-3
Format/Info                    : Audio Coding 3
Mode extension                 : CM (履行 主)
Format settings, Endianness    : Big
Codec ID                       : A_AC3
Duration                       : 2h 6mn
Bit rate mode                  : Constant
Bit rate                       : 256 Kbps
波道(s)                    : 2 channels
Channel positions              : Front: L R
Sampling rate                  : 48.0 KHz
Frame rate                     : 31.250 fps (1536 SPF)
Compression mode               : Lossy
Stream size                    : 232 MiB (15%)
Title                          : [翻译者]休闲健身中心国与央视中国1971分离缺陷掉 怒放的CHM情况队的居住记载 289629195摆设
Language                       : Chinese
Default                        : Yes
Forced                         : Yes

Audio #2
ID                             : 3
Format                         : AC-3
Format/Info                    : Audio Coding 3
Mode extension                 : CM (履行 主)
Format settings, Endianness    : Big
Codec ID                       : A_AC3
Duration                       : 2h 6mn
Bit rate mode                  : Constant
Bit rate                       : 256 Kbps
波道(s)                    : 2 channels
Channel positions              : Front: L R
Sampling rate                  : 48.0 KHz
Frame rate                     : 31.250 fps (1536 SPF)
Compression mode               : Lossy
Stream size                    : 232 MiB (15%)
Title                          : 【东影上译国配】删减分离用英语原声掉换 怒放的CHM情况队的居住记载 289629195摆设
Language                       : Chinese
Default                        : No
Forced                         : No

Audio #3
ID                             : 4
Format                         : AC-3
Format/Info                    : Audio Coding 3
Mode extension                 : CM (履行 主)
Format settings, Endianness    : Big
Codec ID                       : A_AC3
Duration                       : 2h 6mn
Bit rate mode                  : Constant
Bit rate                       : 256 Kbps
波道(s)                    : 2 channels
Channel positions              : Front: L R
Sampling rate                  : 48.0 KHz
Frame rate                     : 31.250 fps (1536 SPF)
Compression mode               : Lossy
Stream size                    : 232 MiB (15%)
Title                          : [情况]与央视
Language                       : Chinese
Default                        : No
Forced                         : No

Audio #4
ID                             : 5
Format                         : AC-3
Format/Info                    : Audio Coding 3
Mode extension                 : CM (履行 主)
Format settings, Endianness    : Big
Codec ID                       : A_AC3
Duration                       : 2h 6mn
Bit rate mode                  : Constant
Bit rate                       : 256 Kbps
波道(s)                    : 2 channels
Channel positions              : Front: L R
Sampling rate                  : 48.0 KHz
Frame rate                     : 31.250 fps (1536 SPF)
Compression mode               : Lossy
Stream size                    : 232 MiB (15%)
Title                          : 【英语原声】
Language                       : English
Default                        : No
Forced                         : No

Text
ID                             : 6
Format                         : ASS
Codec ID                       : S_TEXT/ASS
Codec ID/Info                  : Advanced Sub Station Alpha
Duration                       : 2h 6mn
Bit rate                       : 106 bps
Count of elements              : 1414
Compression mode               : Lossless
Stream size                    : 99.3 KiB (0%)
Title                          : 【中文字幕】
Language                       : Chinese
Default                        : No
Forced                         : No
堆积比对书信

下载地址:百度云:
360云盘:

从组 CHM在分派组

发表评论

电子邮件地址不会被公开。 必填项已用*标注